#TITLE:Metal Slug;
#SUBTITLE:Metal Slug X;
#ARTIST:Neo Geo SNK;
#TITLETRANSLIT:;
#SUBTITLETRANSLIT:;
#ARTISTTRANSLIT:;
#CREDIT:;
#BANNER:metalslug-ba.png;
#BACKGROUND:metalslug-bg.jpg;
#LYRICSPATH:;
#CDTITLE:Mus1c.png;
#MUSIC:18-Metal Slug.mp3;
#OFFSET:-0.060;
#SAMPLESTART:18.980;
#SAMPLELENGTH:12.000;
#SELECTABLE:YES;
#BPMS:0.000=125.044,320.000=93.964;
#STOPS:;
#BGCHANGES:;
// cache tags:
#FIRSTBEAT:0.500;
#LASTBEAT:330.000;
#SONGFILENAME:Songs/nhac/Metal Slug/Metal.sm;
#HASMUSIC:1;
#HASBANNER:1;
#MUSICLENGTH:165.215;
// end cache tags

//---------------dance-single - ----------------
#NOTES:
     dance-single:
     :
     Hard:
     11:
     0.837,0.999,0.920,0.623,1.000,713.000,152.000,103.000,0.000,5.000:
0000
0220
0330
2002
0000
0000
0000
0000
,
0000
0003
3202
0000
0000
0000
0000
0000
0000
0000
1303
0100
0010
0001
0100
0010
,
1000
0100
0010
1000
0010
0100
1000
0010
0101
0000
0110
0000
0202
0000
0303
0000
,
0010
0010
0010
0000
0021
0000
0030
0000
1000
1000
1000
0000
2010
0000
3000
0000
,
0000
0000
0001
0010
1000
0100
0001
0010
1001
0000
1100
0000
0022
0000
0033
0000
,
0100
0100
0100
0000
1200
0000
0300
0000
0010
0010
0010
0000
0001
0010
0100
1000
,
0001
0100
0010
1000
0001
0100
0010
1000
0010
0100
0001
0010
1000
0001
0100
0010
,
1000
0001
0100
0001
1000
0100
0010
1000
0001
0100
0001
0100
1000
0001
0100
0010
,
1000
0100
0010
0001
1000
0010
0100
0001
1000
0010
0001
0100
0001
0010
0100
1000
,
0001
0100
0010
1000
0100
0001
0010
0001
0100
0001
1000
0001
0100
0010
0001
1000
,
0001
0000
0100
0010
1001
0000
0000
0000
0000
0000
1000
0000
1000
0000
1000
0000
1000
0000
1000
0000
0000
0000
1100
0000
0000
0000
0000
0000
0000
0000
0100
0000
,
0100
0100
0000
0200
0000
0000
0000
0310
0010
0010
0000
0020
0000
0000
0000
0130
,
0000
1001
0000
0000
0000
0100
0100
0100
0100
0100
0000
1100
0000
0000
0000
0001
,
0001
0001
0000
0002
0000
0000
0000
0013
0010
0010
0000
0020
0000
0000
0000
1030
,
0000
1100
0000
0000
0000
1001
1001
1001
1001
1001
0000
1001
0000
0000
0000
1010
,
1010
1010
0000
1020
0000
0000
0000
1130
1100
1100
0000
2100
0000
0000
0000
3001
,
0000
0110
0000
0000
0000
0110
0110
0110
0110
0110
0000
0110
0000
0000
0000
0101
,
0101
0101
0000
0102
0000
0000
0000
0013
0011
0011
0000
0021
0000
0000
0000
0130
,
0000
1001
0000
0000
0000
0000
0000
1100
0000
0101
0000
1010
0000
1001
0000
0000
,
0000
0110
0000
0011
0000
1100
0000
0000
0000
0000
0000
0101
0000
1100
0000
0110
,
0000
2002
3003
0000
0000
0000
0000
0000
0000
0000
0000
0000
0000
0000
0000
0000
,
1000
0100
0010
0001
0010
0200
0000
0000
0300
0000
1000
0010
0100
1000
0100
0001
,
0020
0000
0000
0000
1130
1100
0000
0000
0000
0000
0000
0000
0000
0000
0000
0000
,
0001
0010
0100
0001
0010
0200
0000
0000
0300
0000
0001
1000
0010
0100
0001
1000
,
0001
0000
0000
0000
1000
0000
0000
0000
0000
0000
1000
0000
0000
0000
0000
1000
0000
0000
0000
0000
2000
0000
0000
0000
0000
0000
0000
0000
0000
0000
0000
0000
0000
0000
0000
0000
0000
0000
0000
0000
0000
0000
0000
0000
0000
0000
0000
0000
3000
0000
0000
0000
0010
0000
0000
0000
0000
0010
0000
0000
0000
0000
0010
0000
,
0000
0000
0000
0010
0000
0000
0000
0000
0000
0000
0000
0000
0000
0000
0000
0000
0000
0000
0000
0000
0000
0000
0000
0000
0000
0001
0000
0000
0000
0000
0001
0000
0000
0000
0001
0000
0000
0000
0000
0000
0000
0000
0000
0000
0000
0000
0000
0000
0000
0000
1001
0000
0000
0000
0000
0000
0000
0000
0000
0000
0000
0000
0000
0000
,
0000
1100
0000
0000
0000
0000
0000
0000
0000
0000
0000
0000
0000
0000
0000
0000
0000
0000
0000
0000
0000
0000
0000
0000
0000
0000
0100
0000
0000
0000
0000
0100
0000
0000
0000
0100
0000
0000
0000
0000
0000
0000
0000
0000
0000
0000
0000
0000
0000
0000
1001
0000
0000
0000
0000
0000
0000
0000
0000
0000
0000
0000
0000
0000
,
0000
0000
0101
0000
0000
0000
0000
0000
0000
0000
0000
0000
0000
0000
0000
0000
0000
0000
0000
0000
0000
0000
0000
0000
0000
0010
0000
0000
0000
0000
0010
0000
0000
0000
0000
0000
1000
0000
0000
0000
0000
0000
0000
0000
0001
0000
0000
0000
0000
0000
0000
0000
0000
0000
0000
0100
0000
0000
0000
0000
0000
0000
0000
0000
,
0020
0000
0000
0030
,
0010
0100
0010
0100
0010
0200
0000
0000
0300
0000
1000
0100
0001
0010
0100
1000
,
0200
0000
0000
0311
0011
0000
0000
0000
0000
0000
0000
0000
0000
0000
0000
0000
,
1000
0010
0100
1000
0010
0200
0000
0000
0300
0000
0010
0100
1000
0001
0100
0001
,
0000
0100
0000
0000
0100
0000
0000
0100
0000
0000
0200
0000
0000
0000
0000
0000
0000
0000
0000
0000
0000
0000
0300
0000
0001
0000
0000
0001
0000
0000
0001
0000
,
0000
0001
0000
0000
0000
0000
0000
0000
0000
0000
0000
0000
0100
0000
0100
0000
0100
0000
0000
0000
0000
0000
0000
0000
0110
0000
0000
0000
0000
0000
0000
0000
,
1100
0000
0000
0000
0000
0000
1000
1000
1000
0000
0000
0000
1001
0000
0000
0000
,
0101
0000
0000
0000
0000
0000
0010
0010
0020
0000
0000
0000
0000
0000
0000
0000
,
0000
0000
0000
0000
0000
0000
0000
0000
1030
0100
0010
0001
1000
0100
0001
0010
,
1000
0100
0010
0001
1000
1000
1000
1000
1000
0000
1100
0000
0000
0000
0010
0010
,
0010
0000
0020
0000
0030
0000
0001
0001
0001
0000
0002
0000
0000
0003
0000
0000
,
0010
0010
0010
0010
0100
0100
0100
0100
0100
0000
0101
0000
0000
0000
1000
1000
,
1000
0000
2000
0000
3000
0000
0100
0100
0100
0000
0200
0000
0300
0000
0011
0000
,
0100
1000
0100
0010
0001
1000
0001
1000
0001
0000
0101
0000
0000
0000
0010
1000
,
0010
0000
0020
0000
0030
0000
0100
0001
0100
0000
0200
0000
0300
0000
0010
0000
,
0001
0010
0100
1000
0100
0010
0100
0010
0100
0000
0110
0000
0000
0000
0100
0100
,
0100
0000
0000
0000
0000
0000
0002
0000
0000
0000
0000
0000
0003
0000
0000
0010
0000
0000
0010
0000
0000
0010
0000
0000
1000
0000
0100
0000
0010
0000
0001
0000
1000
0000
0010
0000
0100
0000
0001
0000
1000
0000
0100
0000
0010
0000
0001
0000
,
0020
0000
2030
0000
,
0000
0000
3002
0203
,
0320
0000
0000
0000
0000
0032
0023
0230
0000
0000
0000
0000
0000
0000
0000
0000
,
0000
0000
2300
3020
,
0230
0000
0302
0000
,
0000
0000
0023
0230
,
2300
0000
0000
0000
0000
3200
0320
0032
0000
0000
0000
0000
0000
0000
0000
0000
,
1003
0000
0100
0000
0010
0000
0001
0000
0010
0000
0100
0000
1000
0000
0001
0000
0100
0000
0010
0000
1000
0000
0100
0000
0010
0000
0000
0010
0000
0000
0010
0000
0000
0010
0000
0000
0010
0000
0000
0001
0000
0000
0010
0000
0000
0100
0000
0000
,
1000
0001
0010
0100
0010
0001
0100
0010
0001
1000
0010
0100
1000
0022
0033
2000
,
0000
3200
0000
0300
0000
0000
0001
0100
1000
0001
0100
0010
1000
0100
0010
0001
,
0100
1000
0010
0100
0002
0000
0000
0000
0203
0000
0000
0000
0310
0001
0010
0020
,
0030
0000
0000
0000
0001
0100
0010
2000
0000
0000
3020
0000
0000
0230
0000
0300
,
0000
0000
0000
0000
0001
0010
0100
1000
0001
0010
0100
1000
0100
0010
0002
0000
0000
0000
2003
0000
0000
0000
0000
0000
3000
0000
0100
0000
0100
0000
0000
0010
,
0000
0010
0000
0000
0000
0000
0000
0000
0000
0000
0000
0000
0000
0000
0000
0000
1000
0000
0100
0000
1000
0000
0100
0000
0002
0000
0000
0000
0000
0000
0000
0000
0000
0000
0000
0000
0000
0000
0000
0000
0000
0000
0000
0000
0003
0000
0000
0000
1000
0000
0000
0000
0100
0000
0000
0000
0001
0000
0000
0000
0010
0000
0000
0000
,
0100
1000
0010
0100
1000
0010
0001
0100
1000
0001
0100
0010
0100
1000
0002
0000
,
0000
0000
0000
0000
0013
0100
0010
0100
0010
0000
1000
0000
0100
0000
0001
0000
0010
0000
1000
0000
0001
0000
0010
0000
2002
0000
0000
0000
0000
0000
3003
0000
,
0000
0000
0000
0000
0000
0000
0000
0000
0000
0000
0000
0000
0000
0000
0000
0000
0000
0000
0001
0010
0100
1000
0001
0010
0100
0000
1010
0000
1010
0000
0001
0000
,
0010
1000
0100
0001
0110
0110
0000
0000
1100
1100
0001
0010
1000
0001
0010
2200
,
0000
0000
3300
0000
0100
0010
0001
0010
1000
0010
0100
0001
0010
1000
0100
0010
,
0001
0000
0100
0000
1000
0000
0001
0000
0010
0000
0100
0000
0010
1000
0100
0010
0002
0000
0000
0000
0003
0000
0001
0010
0100
1000
0100
0010
0001
0100
0020
0000
,
0030
0000
0000
0000
1000
0100
1000
0001
0010
0100
0010
0001
1000
0001
2000
0000
,
0000
0000
3000
0000
0000
0000
0010
0100
0010
0100
0020
0000
0000
0000
0030
0000
1000
0000
0001
0000
0100
0000
0010
0000
1000
0000
0001
0000
0220
0000
0000
0000
,
0330
0000
0000
0000
0000
0000
2020
3030
0000
0101
0000
0000
0022
0033
0000
2000
,
0100
0000
0010
0000
0001
0000
0010
0000
0100
0000
0010
0000
0001
0000
0010
0000
0000
0000
3000
0000
0000
0110
0000
0000
,
0000
0000
1000
1000
1000
1000
1000
0000
1010
0000
0000
0000
0001
0001
0001
0000
,
0002
0000
0000
0000
0013
0010
0010
0000
0020
0000
0000
0000
0130
0000
0101
0000
,
0000
0000
0100
0100
0100
0100
0100
0000
1100
0000
0000
0000
1000
1000
1000
0000
,
2000
0000
0000
0000
3001
0001
0001
0000
0002
0000
0000
0000
0103
0000
1001
0000
,
0000
0000
0110
0110
0110
0110
0110
0000
0110
0000
0000
0000
1100
1100
1100
0000
,
2002
0000
3003
0000
0101
0101
0101
0000
0022
0000
0033
0000
0110
0000
1001
0000
,
0000
0000
1001
1001
1001
1001
1001
0000
1001
0000
0000
0000
0011
0011
0011
0000
,
0022
0000
0033
0000
1100
1100
1100
0000
2002
0000
3003
0000
0110
0000
1001
0000
,
0000
0000
0110
1100
0101
0011
0000
1100
,
1010
0110
0000
0000
0011
1010
0101
1001
,
0000
0000
0000
0220
0000
0000
0330
0000
,
1001
0010
0100
0001
0010
0100
1000
0001
1000
0100
0001
1000
0010
0000
1100
1100
,
1100
0000
0000
0000
0011
0011
0011
0000
0000
0110
0110
0110
0110
0110
0110
0000
,
1001
1001
2002
0000
0000
0000
0000
0000
3003
0000
0000
0000
0000
0000
0000
0000
;
